StarMusicFestival
Bruce Roberts - Cool Fool Album

Bruce Roberts - Cool Fool Album

Genre: Rock / Pop
Performer: Bruce Roberts
Album: Cool Fool
Released: 1980
Style: Pop Rock
MP3 version ZIP size: 1333 mb
FLAC version ZIP size: 1167 mb
Rating: 4.0
Votes: 801

Tracklist


Cool Fool4:20
All Through The Night3:58
S'Good Enuf4:29
Heart Be Steady3:17
Prelume (Instrumental)2:03
With All Of My Love, With All Of My Heart4:30
No Other Love3:56
The Guys You Dance With4:09
Light In The Window4:42

Versions


CategoryArtistTitle (Format)LabelCategoryCountryYear
6E-262Bruce Roberts Cool Fool ‎(LP, Album)Elektra6E-262US1980
P-10863EBruce Roberts Cool Fool ‎(LP, Album)ElektraP-10863EJapan1980
P-10863EBruce Roberts Cool Fool ‎(LP, Album, Promo)ElektraP-10863EJapan1980
6E-262Bruce Roberts Cool Fool ‎(LP, Album, Promo, AR,)Elektra6E-262US1980
6E-262Bruce Roberts Cool Fool ‎(LP, Album, Promo, Spe)Elektra6E-262US1980
WMC5-433Bruce Roberts Cool Fool ‎(CD, Album, RE)ElektraWMC5-433Japan1991
AMCY-3056Bruce Roberts Cool Fool ‎(CD, Album, RE)ElektraAMCY-3056Japan1997
VSCD-3378Bruce Roberts Cool Fool ‎(CD, RE, RM, Min)Vivid SoundVSCD-3378Japan2009

Album Info


Cool Fool - Bruce Roberts. Лента с персональными рекомендациями и музыкальными новинками, радио, подборки на любой вкус, удобное управление своей коллекцией. Cool Fool. Bruce Roberts - Cool Fool 1980. To favorites 0 Download album. Listen album. AOR Soft Rock. Bruce Roberts. Songs in album Bruce Roberts - Cool Fool 1980. Bruce Roberts - Cool Fool. Bruce Roberts - S' Good Enuf. Bruce Roberts - With All My Love, With All Of My Heart. Bruce Roberts - The Guys You Dance With. Bruce Roberts - No Other Love. Bruce Roberts - Heart Be Steady. Bruce Roberts - Prelume. From Bruce Roberts's 1980 release Cool Fool. WMG от лица компании Elektra ASCAP, UMPG Publishing, Sony ATV Publishing, Reservoir Media. Album 1979 9 Songs. Cool Fool Bruce Roberts. 9 tracks 35:24. Come From All Over The World. Cool Fool, 2015. Cool Fool, 04:25. S' Good Enuf, 04:30. The Guys You Dance With, 04:13. Cool Fool 1980. Album by Bruce Roberts. All Through the Night. is a cover of. Intimacy is the third studio album by Bruce Roberts, released on September 19, 1995. It featured musical and vocal contributions by many notable artists. Intimacy Bruce Roberts, Junior Miles. Real Roberts, Allee Willis. Let Me Steal Your Heart Roberts. When Love Goes Roberts, Miles. My One Joy Roberts. When the Money's Gone Roberts, Donna Weiss. Raise the Population Roberts. All Through the Night Roberts, Donna Summer. Emerald Roberts

Performer


Listen to music from Bruce Roberts like Cool Fool, Whenever There Is Love - From Daylight Soundtrack & more. Find the latest tracks, albums, and images from Bruce Roberts. Learn more. Recent Listening Trend. Come From All Over The World. Bruce Roberts. Cool Fool. Bruce Roberts: American singer and songwriter. His songs have been recorded by such artists as The Pointer Sisters, Donna Summer, Barbra Streisand, Jeffrey Osborne, Whitney Houston and Laura Branigan. He has released three albums as a solo artist including Intimacy, which featured musical and vocal contributions by many notable artists Elton John and Kristine W contributed to the single When the Money's Gone. Light in the Window, Prelume, Heart Be Steady и другие песни. Track Listing. I Don't Break Easily. Our Night. I Don't Wanna Go. I'd Rather Be Alone. This Boy. Me and My Love. The Car Song. Steal Away Again. Bruce Roberts - Bruce Roberts. Лента с персональными рекомендациями и музыкальными новинками, радио, подборки на любой вкус, удобное управление своей коллекцией. Pop songwriter Bruce Roberts released his self-titled debut album on Elektra Records in 1977. But he became more successful penning songs for others, starting that same year, when the comic You're Movin' Out Today, co-written with Carole Bayer Sager and Bette Midler, became a chart single for Midl. Taker, The Best Christmas Ever, performer: The Island Of Misfit Toys, Beautiful Like Me, Mr. Cuddles, The Toy Taker, The Best Christmas Ever. 2001 Круг Assume the Position, courtesy: Assume the Position, producer: Assume the Position, writer: Assume the Position. 1999 Donna Summer: Live and More. Encore TV Special writer: No More Tears Enough Is Enough. 1999 Без изъяна performer: Lady Marmalade, You Make Me Feel Mi. Bruce Roberts by Bruce Roberts. Written by. Covered by 2 artists. This page is only to highlight the career of Bruce Roberts as a professional musician. Look out for performing venues,

Video


Comments:
Thomeena
foobar2000 1.3.17 / Dynamic Range Meter 1.1.1
log date: 2018-07-13 18:57:04

--------------------------------------------------------------------------------
Analyzed: Bruce Roberts / Cool Fool [JP 1997 CD]
--------------------------------------------------------------------------------

DR Peak RMS Duration Track
--------------------------------------------------------------------------------
DR15 -1.99 dB -19.84 dB 4:25 01-Cool Fool
DR15 0.00 dB -17.44 dB 4:31 02-S' Good Enuf
DR15 -3.02 dB -22.22 dB 4:32 03-With All My Love, With All Of My Heart
DR13 -2.27 dB -19.30 dB 4:01 04-All Through The Night
DR13 -1.09 dB -17.73 dB 4:13 05-The Guys You Dance With
DR15 -1.16 dB -19.25 dB 3:59 06-No Other Love
DR15 -2.27 dB -20.88 dB 3:19 07-Heart Be Steady
DR12 -8.36 dB -30.67 dB 2:04 08-Prelume
DR14 -1.45 dB -20.66 dB 4:43 09-Light In The Window
--------------------------------------------------------------------------------

Number of tracks: 9
Official DR value: DR14

Samplerate: 44100 Hz
Channels: 2
Bits per sample: 16
Bitrate: 728 kbps
Codec: ALAC
================================================================================

Performer: The Traits
Genre: Funk & Soul
[xfgiven_name]Title: [xfvalue_name]
[/xfgiven_name] [xfgiven_year]Released: [xfvalue_year]
[/xfgiven_year]
Performer: Tennessee Ernie And Helen O'Connell
Genre: Pop / Folk, World, & Country
[xfgiven_name]Title: [xfvalue_name]
[/xfgiven_name] [xfgiven_year]Released: [xfvalue_year]
[/xfgiven_year]
Performer: Icho Candy / Fish Clarke
Genre: Reggae
[xfgiven_name]Title: [xfvalue_name]
[/xfgiven_name] [xfgiven_year]Released: [xfvalue_year]
[/xfgiven_year]
Performer: Silkk The Shocker Featuring Trina
Genre: Hip hop
[xfgiven_name]Title: [xfvalue_name]
[/xfgiven_name] [xfgiven_year]Released: [xfvalue_year]
[/xfgiven_year]
Performer: Jill Sobule
Genre: Rock
[xfgiven_name]Title: [xfvalue_name]
[/xfgiven_name] [xfgiven_year]Released: [xfvalue_year]
[/xfgiven_year]
Performer: Guy (Daddy Cool) Darrell
Genre: Blues / Pop
[xfgiven_name]Title: [xfvalue_name]
[/xfgiven_name] [xfgiven_year]Released: [xfvalue_year]
[/xfgiven_year]
Performer: Roman Photo
Genre: Funk & Soul / Pop
[xfgiven_name]Title: [xfvalue_name]
[/xfgiven_name] [xfgiven_year]Released: [xfvalue_year]
[/xfgiven_year]
Performer: Edgar Winter's White Trash
Genre: Rock / Funk & Soul
[xfgiven_name]Title: [xfvalue_name]
[/xfgiven_name] [xfgiven_year]Released: [xfvalue_year]
[/xfgiven_year]
Performer: Gregory Isaacs
Genre: Reggae
[xfgiven_name]Title: [xfvalue_name]
[/xfgiven_name] [xfgiven_year]Released: [xfvalue_year]
[/xfgiven_year]
Performer: Eden XO
Genre: Electronic / Pop
[xfgiven_name]Title: [xfvalue_name]
[/xfgiven_name] [xfgiven_year]Released: [xfvalue_year]
[/xfgiven_year]